2008年1月9日水曜日

VOC@LOID NIGHT Vol.2 remix tracs のCUEシート作ってみた

【ニコニコ動画】VOC@LOID NIGHT Vol.2 remix tracks
さて、こちらで公開されているリミックスですが、40分あるんですよね・・・。
で、mp3も公開してくださっているわけですが(アドレスはニコニコ動画の方を参照)、曲ごとに分割していないんですね。
ということで、せっかく(?)なのでCUEシートを作ってみました。曲間は基本的にないというか繋がっているため、分割して聞くためというよりは曲名とアレンジャーが誰かを表示するため程度を考えています。
そのため、時間は厳密ではありません。動画を見ながら手打ちしましたので^^;
需要があるか分かりませんが、「続きを読む」に置いておきます。ネタバレになりますので、曲の内容や順番を知りたくないという人は「続きを読む」を見ないでください。
こちらのCUEシートをfoobar2000などのプレイヤーに読み込ませればタグ情報が表示されるはず・・・です^^;
Linuxで書いているので、まだ確認してません。タイトルや演奏者の情報は適宜書き換えてください。あくまで目安であります。


PERFORMER VOCALOID
TITLE "VOC@LOID NIGHT Vol.2 remex tracs"
FILE "VN2remixtracs.mp3" WAVE
TRACK 01 AUDIO
PERFORMER "kz arranged by baker"
TITLE "Packaged"
INDEX 01 00:00:00
TRACK 02 AUDIO
PERFORMER "ワンカップP arranged by ゆうゆ"
TITLE "子猫のパヤパヤ"
INDEX 01 04:53:00
TRACK 03 AUDIO
PERFORMER "林檎 arranged by baker"
TITLE "さよなら"
INDEX 01 08:13:00
TRACK 04 AUDIO
PERFORMER "iroha arranged by ゆうゆ"
TITLE "moon"
INDEX 01 11:19:00
TRACK 05 AUDIO
PERFORMER "OSTER project arranged by 畳(North-T)"
TITLE "恋スルVOC@LOID"
INDEX 01 16:23:00
TRACK 06 AUDIO
PERFORMER "OSTER project arranged by baker"
TITLE "Chocolate☆Magic -ドキドキ大作戦-"
INDEX 01 18:38:00
TRACK 07 AUDIO
PERFORMER "baker"
TITLE "nostalgia"
INDEX 01 21:52:00
TRACK 08 AUDIO
PERFORMER "畳(North-T) arranged by ゆうゆ"
TITLE "タイムリミット"
INDEX 01 26:30:00
TRACK 09 AUDIO
PERFORMER "ゆうゆ arranged by baker"
TITLE "桜の季節"
INDEX 01 32:15:00
TRACK 10 AUDIO
PERFORMER "baker arranged by ゆうゆ"
TITLE "サウンド"
INDEX 01 36:25:00